#TITLE:taboo(don omar);
#SUBTITLE:;
#ARTIST:Unknown artist;
#TITLETRANSLIT:;
#SUBTITLETRANSLIT:;
#ARTISTTRANSLIT:;
#CREDIT:;
#BANNER:;
#BACKGROUND:;
#LYRICSPATH:;
#CDTITLE:;
#MUSIC:taboo(don omar).ogg;
#OFFSET:-0.409;
#SAMPLESTART:48.409;
#SAMPLELENGTH:12.000;
#SELECTABLE:YES;
#BPMS:0.000=125.000;
#STOPS:;
#BGCHANGES:0.000=taboo(don omar).avi=1.000=1=1=0,
99999=-nosongbg-=1.000=0=0=0 // don't automatically add -songbackground-
;
// cache tags:
#FIRSTBEAT:0.500;
#LASTBEAT:263.500;
#SONGFILENAME:Songs/je/taboo(don omar)/taboo(don omar).sm;
#HASMUSIC:1;
#HASBANNER:0;
#MUSICLENGTH:126.407;
// end cache tags

//---------------dance-single - ----------------
#NOTES:
     dance-single:
     :
     Hard:
     1:
     0.810,0.860,1.000,0.245,0.000,463.000,216.000,31.000,0.000,7.000:
0000
0000
0000
1000
0010
0110
0100
0010
,
1000
0010
0110
0100
0000
0010
1000
0010
,
0000
0110
0010
0100
0010
1000
0010
0100
,
0010
0100
0010
1000
0010
0100
0110
0010
,
0000
0110
1010
0000
0100
0010
0110
0001
,
0010
0000
0110
1000
0010
0100
0010
0100
,
0010
1000
0110
0010
0100
0001
1010
0100
,
0010
1000
0001
0100
0010
1000
0110
0000
,
1001
0000
0010
0101
1010
0101
1000
0110
,
0001
1010
0100
0101
0010
1010
0100
0101
,
1010
0010
0101
0100
0010
0110
1001
0100
,
0010
1000
0110
1001
0010
0100
1010
0001
,
0110
0100
1010
0001
0110
0100
0010
1001
,
0110
0100
1010
0001
0110
0100
0010
1001
,
0110
0100
1010
0001
0110
0100
1010
0001
,
0110
1000
0001
0110
1000
0001
0110
1000
,
0101
0010
0101
1000
0110
0101
1010
0001
,
0110
0110
0101
1010
0110
0101
1000
0110
,
0110
0001
2000
0000
3010
0010
0100
0010
,
0010
0010
0200
0000
0310
0010
1000
0100
,
0020
0000
0030
0100
0010
1000
0100
0010
,
0100
0010
0010
0100
0110
0001
1010
0100
,
0110
0000
0010
0101
1010
0100
0110
1001
,
0010
0110
0101
1010
0110
0100
0101
1010
,
0010
0110
0110
1000
0001
0110
0110
1010
,
0101
0100
1010
0010
0110
0020
0030
0010
,
0010
0010
1010
0110
0100
0012
0000
0003
,
0110
0100
1000
0100
0010
0010
0200
0000
,
0310
0000
2000
3000
0100
0020
0000
0130
,
1000
0110
0020
0000
0000
0230
0000
0000
,
0000
0300
1010
0001
0110
0110
1001
0100
,
0110
1010
0101
0110
0110
1001
0110
0110
,
1001
0010
0110
1001
0100
1010
0110
0101
,
0010
1010
0101
1010
0110
0100
1001
0110
,
0110
0010
1001
0110
0110
0100
1011
0110
,
0010
0010
1110
0100
0010
0110
0001
1000
,
0110
0010
0110
0100
1100
0000
0020
0030
,
0010
0100
0020
0000
1030
0100
0020
0000
,
0130
0010
1000
0000
0100
0010
0010
0100
,
1000
0100
0020
0000
0000
0030
0110
0010
,
0010
0010
1100
0010
0110
0010
0200
0300
,
0010
1000
0120
0000
0130
0010
0020
0000
,
0130
1000
0200
0000
0310
0010
0100
0010
,
1000
0100
0010
0011
0100
1010
0100
0010
,
0010
0000
0101
1010
0110
1001
0110
1001
,
0100
0110
1010
0101
1010
0010
1101
0010
,
0110
0010
1001
0110
0110
1010
0001
0110
,
0110
0110
1010
0010
0101
0110
0100
1010
,
0110
0010
0200
0000
0320
0000
2030
0000
,
3010
0010
0200
0010
0310
0100
0002
0010
,
1003
0100
0010
0200
0000
0000
0000
0000
,
0000
0010
0310
0000
0020
0000
0000
0000
,
0030
1100
0200
0000
0310
0011
0020
0030
,
0110
1000
0200
0310
0010
0011
0100
0010
,
1110
0100
0010
0010
0200
0000
0000
0000
,
0310
0010
0020
0030
0010
0000
0020
0000
,
0000
0030
1001
0010
0110
0101
1010
0110
,
1001
0110
0110
1001
0110
1001
0110
0100
,
1011
0110
0100
0110
1001
0110
0101
1000
,
0110
1010
0101
0110
0110
1010
0010
0110
,
0101
1010
0110
0101
1010
0110
0101
1010
,
0110
0100
1001
0110
0110
1001
0110
0110
,
1001
0010
0110
0110
0110
1101
0010
0110
,
0101
0110
1010
0101
1010
0101
1010
0110
,
0101
1010
0110
1001
0110
0101
1010
0100
,
0111
0100
1010
0110
0010
0101
0000
0100
;

//---------------dance-single - ----------------
#NOTES:
     dance-single:
     :
     Medium:
     1:
     0.833,0.831,0.356,0.301,1.000,654.000,45.000,38.000,0.000,0.000:
0000
0000
2000
0000
3000
0000
0010
0000
0100
0010
0100
0000
0010
1000
0000
0010
,
0100
0000
0010
0100
0001
1000
0000
0010
0000
0100
0010
0000
1001
0010
0000
0100
,
0010
0100
0000
0010
0000
1001
0000
0100
0010
0000
0100
0010
1000
0000
0010
0100
,
0010
0000
0100
0001
1000
0000
0010
0100
0000
0010
0100
0001
1000
0000
0010
0000
,
0100
0010
0000
0100
0001
1000
0000
0010
0100
0000
0010
0000
1000
0001
0000
0000
,
0100
0010
0100
0010
0000
1000
0001
0000
0100
0000
0010
0100
0000
0010
1000
0000
,
0001
0000
0100
0010
0100
0000
0010
0100
0000
1000
0001
0000
0100
0010
0000
0100
,
1000
0000
0010
0000
0100
0000
0110
0000
0000
0001
1000
0000
0000
0010
0100
0010
,
0000
0100
0000
0000
0001
1000
0010
0100
0010
0100
0001
0000
1010
0000
0010
0100
,
0001
0000
0100
0010
1000
0010
0000
0101
0100
0000
0010
0100
0010
0000
1001
0000
,
0100
0010
0100
0000
0010
0010
0100
0001
1000
0000
0010
0100
0000
0010
0100
0001
,
1000
0000
0010
0000
0100
0010
0100
0001
1000
0000
0010
0000
0100
0010
0100
0001
,
1000
0000
0010
0100
0001
0000
0100
0010
1000
0010
0000
0100
0000
0010
0001
0100
,
1010
0000
0100
0000
0010
0000
0110
0001
0000
1000
0000
0010
0100
0010
0000
0001
,
0100
0010
0100
0000
1000
0010
0000
0010
0101
0000
0100
0000
0010
0100
0010
1000
,
0001
0000
0010
0000
0100
0010
0100
0001
0000
1000
0010
0100
0000
0010
1000
0001
,
0100
0010
0000
0100
0001
1000
0010
0100
0010
0100
0001
1000
0010
0100
0001
0100
,
0010
1000
0001
0100
0010
0100
0010
1000
0001
0000
0100
0010
0110
0000
1001
0000
,
0110
0000
1000
0001
0100
0010
0100
0010
0000
1010
0000
0101
0000
0001
0000
0001
,
0001
0000
0001
0000
1010
0000
0100
0010
0100
0010
0100
0001
1000
0010
0100
0010
,
0100
0001
0100
0010
1000
0010
0100
0010
0100
0001
0000
1010
0000
0110
0000
1001
,
0000
0100
0010
0100
0010
1000
0010
0100
0000
0010
0100
0100
0100
0000
0100
0010
,
0100
0000
0010
0010
1000
0010
0000
0100
0010
0100
0001
0100
0010
1000
0010
0000
,
0100
0010
0100
0001
1000
0010
0000
0100
0010
0100
0010
1000
0000
0010
0100
0010
,
0100
0001
1000
0010
0000
0110
0000
0100
0010
0100
0001
1000
0010
0100
0010
0000
,
0100
0010
1010
0000
0100
0010
0100
0010
0000
0100
0010
1000
0010
1000
0010
1000
,
0010
0000
0100
0010
0100
0010
1000
0010
0100
0010
0100
0010
0100
0001
0000
1000
,
0001
1000
0001
1000
0010
0000
0100
0010
0100
0010
1001
0000
0100
0010
0000
0100
,
0010
1000
0010
0100
0010
0000
0100
0010
1001
0000
0100
0010
0100
0010
1000
0001
,
0000
0110
0000
0100
0010
1000
0010
0020
0100
0000
0000
0000
0000
0000
0000
0000
,
0000
0000
2030
0000
0000
3010
0010
0100
,
0020
0000
0000
0000
0030
0010
0010
0000
0100
0000
1000
0000
0100
0010
0010
0000
,
0010
0000
0100
1000
0100
0010
0000
0010
0100
0010
0000
0100
0010
0100
0010
1000
,
0010
0000
1010
0000
0020
0000
0000
0000
0000
0000
0031
0001
0000
0001
0000
0100
,
0020
0000
0000
0030
0010
0000
1000
0000
0000
0100
0010
0000
0010
0000
0010
0000
,
0100
1000
0100
0000
0010
0000
0010
0000
0010
0100
0000
0010
0000
0110
0000
0010
,
0000
0100
0010
0000
0010
0000
1000
0000
0100
0010
0000
0020
0000
0000
0000
0030
,
0100
1000
0100
0000
0020
0000
0000
0030
0100
0100
0000
0020
0000
0000
0030
0100
,
0000
0100
0000
0010
0010
0000
0000
1000
0000
0010
0000
0020
0000
0000
0130
0010
,
0000
0010
0100
0000
0010
0000
1000
0000
0010
0100
0000
0010
0100
0010
0000
0001
,
0000
0100
0001
0100
0000
0010
1000
0100
0010
0000
0010
0000
0200
0000
0000
0310
,
0000
0010
0000
0100
0000
0010
0000
0000
0010
1000
0000
0100
0000
0010
0000
0000
,
0010
0000
0100
0000
0010
0000
0000
0100
0000
0010
1000
0000
0010
0000
0000
0100
,
0000
0010
0000
0100
0020
0000
0000
0000
0000
0000
0130
0100
0020
0000
0000
0000
,
0000
0000
0030
1000
0010
0000
0101
0100
0000
0010
1000
0001
0100
0010
1000
0001
,
0100
0010
0100
0010
1001
0000
0100
0010
1000
0001
0100
0010
0100
0001
0000
1010
,
0100
0001
0100
0010
1000
0001
0000
0110
1000
0001
0100
0010
0000
1001
0000
0100
,
0010
1001
0000
0100
0010
0000
1001
0000
0110
0000
0100
0001
0100
0010
1000
0001
,
0100
0010
1000
0000
0002
0000
0000
0000
0023
0000
0000
0000
2030
0000
0000
0000
,
3100
0000
0100
0000
0020
0000
0000
0000
0130
0100
0000
0020
0000
0000
1030
0000
,
0100
0010
0100
0020
0000
0000
0000
0000
,
0000
0000
0000
0130
2000
0000
0000
0000
3200
0000
0000
0000
0300
0020
0000
0000
,
0000
0000
0030
0010
0020
0000
0000
0000
0130
0000
1000
0100
0020
0000
0000
0000
,
0130
0000
0010
0100
0000
0001
0000
1000
0000
0100
0000
0010
0010
0000
0100
0010
,
0000
0100
0000
0010
1000
0000
0100
0020
0000
0000
0000
0000
0000
0000
0000
0000
,
0000
0000
0000
0230
0000
0000
0000
0000
2300
0000
0000
0000
3200
0000
0000
0000
,
0000
0000
0000
0000
0300
0010
1000
0001
0000
0100
0010
0100
0010
1000
0001
0000
,
0110
0000
0110
0000
1001
0000
0100
0010
0100
0010
1000
0001
0100
0010
0100
0010
,
1000
0001
0100
0010
0000
1001
0000
0110
1000
0001
0100
0000
0010
0110
0000
1001
,
0000
0100
0010
0100
0020
0000
0000
0000
2030
0000
0000
3000
0200
0000
0000
0300
,
0020
0000
0000
0000
1030
0000
0010
0100
0001
0100
0010
1000
0010
0000
0100
0010
,
0101
0000
1000
0020
0000
0000
0000
0000
0230
0000
0000
0000
0320
0000
0000
0000
,
0000
0000
0000
0000
1030
0010
0000
0100
0010
0100
0001
0100
0000
0110
0010
0000
,
1000
0001
0100
0020
0000
0000
0030
0100
0010
0010
0000
0100
0010
0000
0010
1000
,
0010
0000
0010
0100
0000
0010
0010
0000
1000
0010
0100
0010
0000
0101
0000
1010
,
0000
0100
0000
0010
0102
0000
0000
0003
0020
0000
0000
0030
0000
0000
0000
0000
;

//---------------dance-single - ----------------
#NOTES:
     dance-single:
     :
     Easy:
     1:
     0.735,0.777,1.000,0.174,0.000,247.000,215.000,22.000,0.000,132.000:  // measure 1
0000
0001
0001
1110
,  // measure 2
0111
1101
0111
1011
,  // measure 3
0111
1011
0110
1001
,  // measure 4
0110
1001
0111
0111
,  // measure 5
1000
0001
0110
1000
,  // measure 6
0101
0010
1001
0110
,  // measure 7
0101
1010
0101
0010
,  // measure 8
1100
0110
0101
1010
,  // measure 9
0110
1011
1101
0111
,  // measure 10
1110
0111
1110
0111
,  // measure 11
1110
0111
1110
0110
,  // measure 12
1001
0111
0101
0111
,  // measure 13
1101
0111
0110
1110
,  // measure 14
0101
0111
1110
0110
,  // measure 15
0101
0110
1101
0110
,  // measure 16
0101
1010
0101
0110
,  // measure 17
1001
0111
1110
1111
,  // measure 18
1111
0111
1111
1111
,  // measure 19
0111
1011
0111
1101
,  // measure 20
0001
0110
1011
0110
,  // measure 21
0110
1101
0110
1111
,  // measure 22
0111
1111
1111
0010
,  // measure 23
0110
0111
1111
1110
,  // measure 24
0111
1111
0111
1111
,  // measure 25
0111
0111
1010
0110
,  // measure 26
0011
1010
0101
0110
,  // measure 27
0001
0111
1110
0110
,  // measure 28
0110
0111
0111
1010
,  // measure 29
0110
0110
1011
0101
,  // measure 30
1010
0102
0000
0000
,  // measure 31
0000
0113
1111
1111
,  // measure 32
0110
1111
0110
1001
,  // measure 33
0111
1110
0111
1111
,  // measure 34
0001
1011
0110
1111
,  // measure 35
1110
0111
1111
0111
,  // measure 36
1111
1111
0111
1001
,  // measure 37
1001
1110
0111
1111
,  // measure 38
0110
1111
1110
0110
,  // measure 39
1110
0111
0110
1111
,  // measure 40
0110
1110
0101
0110
,  // measure 41
1101
0110
1111
0110
,  // measure 42
0110
1101
0110
0011
,  // measure 43
0110
0110
1111
0110
,  // measure 44
1110
1111
0111
1111
,  // measure 45
0110
1111
0111
1110
,  // measure 46
1101
0110
1111
0110
,  // measure 47
1101
1110
0111
1111
,  // measure 48
0111
1111
1111
1111
,  // measure 49
0110
0102
0023
0230
,  // measure 50
0310
1200
0310
0110
,  // measure 51
0110
1120
0000
0000
,  // measure 52
0031
0002
0023
2030
,  // measure 53
0000
3110
0111
1110
,  // measure 54
0111
0111
1110
0111
,  // measure 55
1111
0120
0000
0000
,  // measure 56
0230
0320
2030
3020
,  // measure 57
0000
0131
1110
0111
,  // measure 58
1101
0111
1111
1101
,  // measure 59
0111
1111
1111
1111
,  // measure 60
0111
1002
0023
0230
,  // measure 61
2300
3020
0000
0000
,  // measure 62
0130
0020
2030
3200
,  // measure 63
0000
0000
0000
0000
,  // measure 64
1310
0111
0101
1010
,  // measure 65
0111
1111
1111
1101
,  // measure 66
0110
0110
0001
0000
;
